» » Eric Legnini - The Box! The Afro Jazz Beat Sound
Eric Legnini - The Box! The Afro Jazz Beat Sound flac album

Eric Legnini - The Box! The Afro Jazz Beat Sound flac album

MP3 1254 mb. | FLAC 1109 mb. | WMA 1620 mb.

Performer: Eric Legnini
Title: The Box! The Afro Jazz Beat Sound
Released: 2013
Style: Fusion, Afrobeat, Soul-Jazz
Category: Jazz
Rating: 4.7 ✦
Other format: MIDI MP1 AC3 TTA AHX APE AAC

Eric Legnini and The Afro jazz beat with Krystle Warren Rose coloured glasses. Eric Legnini and The Afro Jazz Beat If Only For A Minute. Eric Legnini & The Afro Jazz B Cinematic.

Artist: Eric Legnini & The Afro Jazz Beat Duration: 04:48 File type: mp3. Play Pause Download. other tracks: Eric Legnini & The Afro Jazz Beat. play) (pause) (download) (fb) (vk) (tw). Eric Legnini & The Afro Jazz Beat Black President. Eric Legnini & The Afro Jazz Beat London Spot. Eric Legnini & The Afro Jazz Beat Near The House On The Hill. play) (pause) (download) (fb) (vk) (tw)

Deutsch English Español Français Italiano 日本語.

March 2011, 20:15 Eric Legnini & The Afro Jazz Beat, The Vox Used drive : HL-DT-STDVD-ROM GDR8162B Adapter: 0 ID: 0 Read mode : Secure Utilize accurate stream : Yes Defeat audio cache : Yes Make use of C2 pointers : No Read offset correction : 102 Overread into Lead-In and Lead-Out : No Fill up missing offset samples with silence : Ye. FLAGS DCP INDEX 01 13:47:05 TRACK 05 AUDIO TITLE "London Spot" PERFORMER "Eric Legnini & The Afro Jazz Beat" ISRC FRP211100050 FLAGS DCP INDEX 01 18:13:27 TRACK 06 AUDIO TITLE "Near The House On The Hill" PERFORMER "Eric Legnini & The Afro Jazz Beat" ISRC FRP211100060 FLAGS DCP INDEX 01 22:33:20 TRACK 07 AUDIO TITLE "The Old.

Tracklist Hide Credits

1-1 The Vox
1-2 Joy
Vocals – Krystle Warren
1-3 Kitchen Maquis
1-4 I Need You
Vocals – Krystle Warren
1-5 London Spot
1-6 Near The House On The Hill
Vocals – Krystle Warren
1-7 The Old And Grey
Vocals – Krystle Warren
1-8 Black President
1-9 Rose Coloured Glasses
Vocals – Krystle Warren
1-10 Canyon Lady
Vocals – Krystle Warren
1-11 Cinematic
2-1 Song Twice!
2-2 Salisbury Plain
2-3 Snow Falls
2-4 Yan Kadi
2-5 Winter Heron
2-6 If Only For A minute
2-7 Carmignano
2-8 The Source
2-9 We Love Shibuya
2-10 Cinecittà
3-1 Carmignano ( Souleance Remix )
3-2 Trippin' High ( Moogoo Remix )
3-3 Yan Kadi ( Instrumental )
3-4 Rock The Days ( Blackjoy Remix )
Remix – BlackjoyVocals – Sandra Nkaké*
3-5 Snow Falls ( Instrumental )
3-6 Introspection 3
3-7 Winter Heron ( instrumental )
3-8 Salisbury Plain ( Instrumental )
3-9 Joy ( Moogoo Remix )
3-10 Trippin' ( Moogoo Vs Lyrics Born )
3-11 Black President ( Moogoo Remix )
3-12 The Vox ( Moogoo Remix )
3-13 Introspection 2
3-14 If Only For A Minute
3-15 The Source ( Instrumental )
3-16 Rock The Days ( Acoustic Version )