» » Eagles - Their Greatest Hits 1971-1975
Eagles - Their Greatest Hits 1971-1975 flac album

Eagles - Their Greatest Hits 1971-1975 flac album

MP3 1382 mb. | FLAC 1238 mb. | WMA 1729 mb.

Performer: Eagles
Title: Their Greatest Hits 1971-1975
Released: 1976
Style: Classic Rock
Category: Rock
Rating: 4.3 ✦
Other format: AHX MIDI MP4 VQF AUD MP2 WAV

Their Greatest Hits (1971–1975) is the first compilation album by the Eagles, released in 1976. The album contains a selection of songs from the Eagles' first four albums released in the period from the Eagles' formation in 1971 up to 1975. It was the best-selling album of the 20th century in the United States, and it stayed the best-selling album in the . for some years until it was surpassed by Michael Jackson's Thriller after the artist's death in 2009

Their Greatest Hits 1971-1975. All of which means that, unlike the albums from which they come, these songs make up a collection consistent in mood and identity, which may help explain why Their Greatest Hits (1971-1975) works so much better than the band's previous discs and practically makes them redundant. No wonder it was such a big hit out of the box, topping the charts and becoming the first album ever certified platinum.

Their Greatest Hits 1971-1975 is the Eagles first compilation album, made up of songs from their first four albums. The album was the very first Platinum Certified album in the United States (It is currently 29x Platinum). It was also the greatest selling album of the 20th Century untill being passed by Michael Jackson’s Thriller in 2009 after his death. As of August 20th 2018, it has passed Thriller in sales and is now the Greatest Selling Album of All time in the United States. Their Greatest Hits 1971-1975 Q&A.

Their Greatest Hits (1971–1975) является одним из самых продаваемых альбомов в истории музыки. Отчёт EAC. EAC extraction logfile from 20. October 2004, 8:44 for CD The Eagles, Their Greatest Hits (DCC Gold Disc). Track 8 Filename D:NewMusicEaglesTheir Greatest Hits (DCC)Eagles - 08 - Take It To The Limit. Peak level 10. % Track quality 10. % Test CRC 60D68B7E Copy CRC 60D68B7E Copy OK. Track 9 Filename D:NewMusicEaglesTheir Greatest Hits (DCC)Eagles - 09 - Peaceful Easy Feeling. Peak level 9. % Test CRC EDE78D58 Copy CRC EDE78D58 Copy OK. Track 10 Filename D:NewMusicEaglesTheir Greatest Hits (DCC)Eagles - 10 - Best Of My Love. % Test CRC 1EACB756 Copy CRC 1EACB756 Copy OK. No errors occured.

Album · 1976 · 10 Songs. One of the most perfectly compiled collections ever, Their Greatest Hits 1971-75 brings together 10 sublime country-rock tunes that helped make Southern California seem like the most mythical landscape of the '70s. Don Henley's vocals, most notably on the haunting piano ballad "Desperado" and the soft-rock charmer "The Best of My Love", were a major part of their success, but Randy Meisner's soulful "Take It to the Limit" and Glenn Frey's hitting-the-road rocker "Already Gone" showcased the band's impressive range.

To those complaining about Hotel California being missing: It ain't here because this album came out before Hotel California was released. I always laugh at a story my brother tells: At an Eagles concert in LA in late '75, the audience, expecting to hear all the awesome songs on THIS album, booed heavily when the Eagles started with "something new we've been working on". The new song was Hotel California. The audience was mystified and confused - it wasn't what they came to hear. Their Greatest Hits 1971-1975. The Very Best of Eagles.

Back to: Eagles Lyrics. Browse By Artist or Genre ▼ Home Soundtracks Top Hits One Hit Wonders TV Themes Country Christian Hip Hop/R&B Rock Oldies Trending AFL Club Themes Child Songs Christmas Carols Fight Songs Gospel Holidays Letras Lullabies National Anthems Patriotic Songs Soccer/Futbol State Songs WWE Themes A B C D E F G H I J K L M N O P.