» » Eddie "Lockjaw" Davis Quintet With Shirley Scott - Jaws In Orbit
Eddie "Lockjaw" Davis Quintet With Shirley Scott - Jaws In Orbit flac album

Eddie "Lockjaw" Davis Quintet With Shirley Scott - Jaws In Orbit flac album

MP3 1973 mb. | FLAC 1287 mb. | WMA 1118 mb.

Performer: Eddie "Lockjaw" Davis Quintet
Title: Jaws In Orbit
Country: US
Released: 1959
Style: Soul-Jazz
Category: Jazz
Rating: 4.6 ✦
Other format: DXD MP1 MIDI AIFF MP4 WAV FLAC

Recorded in Hackensack, NJ; May 1, 1959. Digital remastering, 1992, Fantasy Studios, Berkeley. Manufactured under license for distribution by ZYX-Music GmbH.

View first unread post Eddie 'Lockjaw' Davis & Shirley Scott - Bacalao (1959/2003) ; FLAC (image+. cue) by Mike1985 13 Jul 2018, 16:40 in Bop (lossless - FLAC, APE, et. 0. 378. by Mike1985 View the latest post 13 Jul 2018, 16:40. cue) by Mike1985 17 Feb 2019, 12:00 in Bop (lossless - FLAC, APE, et. 229. by Mike1985 View the latest post 17 Feb 2019, 12:00

Eddie "Lockjaw" Davis. In the 1950s, he was playing with Sonny Stitt, while from 1960 to 1962, he and fellow tenor saxophonist Johnny Griffin led a quintet Davis died of Hodgkin's lymphoma cancer in Culver City, California, at the age of 6. .1958: The Eddie "Lockjaw" Davis Cookbook, Vol. 2 (Prestige) – with Shirley Scott, Jerome Richardson; also released as The Rev (Prestige, 1970). 1958: The Eddie "Lockjaw" Davis Cookbook Volume 3 (Prestige) – with Shirley Scott, Jerome Richardson; released 1961. 1959: Jaws in Orbit (Prestige) – with Steve Pulliam, Shirley Scott. 1959: Bacalao (Prestige) – with Shirley Scott.

Eddie Lockjaw Davis Quintet With Shirley Scott. Eddie Lockjaw Davis, Shirley Scott – Smoke Gets in Your Eyes. Eddie Lockjaw Davis, Shirley Scott – In The Kitchen. Eddie Lockjaw Davis feat.

Bingo Domingo (5:57) Personnel: Eddie "Lockjaw" Davis - tenor saxophone Shirley Scott - organ Steve Pulliam - trombone George Duvivier - bass Arthur Edgehill - drums. AUDIO TITLE "Our Delight" PERFORMER "Eddie 'Lockjaw' Davis Quintet With Shirley Scott" INDEX 00 05:49:40 FILE "04 - Our Delight. wav" WAVE INDEX 01 00:00:00 TRACK 05 AUDIO TITLE "Bahia" PERFORMER "Eddie 'Lockjaw' Davis Quintet With Shirley Scott" INDEX 00 06:19:65 FILE "05 - Bahia. wav" WAVE INDEX 01 00:00:00 TRACK 06 AUDIO TITLE "Bingo Domingo" PERFORMER. Eddie 'Lockjaw' Davis Quintet With Shirley Scott" INDEX 00 07:27:28 FILE "06 - Bingo Domingo. wav" WAVE INDEX 01 00:00:00.

The Art Van Damme Quintet, Manhattan Time.

This CD reissue features the duo joined by bassist George Duvivier, drummer Arthur Edgehill and the obscure trombonist Steve Pulliam for a typically swinging set of basic originals and standards. Highlights include a hard-swinging "Intermission Riff" and "Our Delight. Related Release: Eddie Davis - The Eddie Lockjaw Davis Cookbook (2019).

Tracklist

Intermission Riff
Can't Get Out Of This Mood
Foxy
Our Delight
Bahia
Bingo Domingo

Versions

Category Artist Title (Format) Label Category Country Year
7171 Eddie "Lockjaw" Davis Quintet* With Shirley Scott Eddie "Lockjaw" Davis Quintet* With Shirley Scott - Jaws In Orbit ‎(LP, Album) Prestige 7171 US 1959
32-128 Eddie "Lockjaw" Davis Quintet* With Shirley Scott Eddie "Lockjaw" Davis Quintet* With Shirley Scott - Jaws In Orbit ‎(LP, Album) Esquire 32-128 UK 1959
OJC-322, P-7171 Eddie "Lockjaw" Davis Quintet* With Shirley Scott Eddie "Lockjaw" Davis Quintet* With Shirley Scott - Jaws In Orbit ‎(LP, Album, Mono, RE) Original Jazz Classics, Prestige OJC-322, P-7171 US 1988
OJCCD 322-2, P-7171 Eddie "Lockjaw" Davis Quintet* With Shirley Scott Eddie "Lockjaw" Davis Quintet* With Shirley Scott - Jaws In Orbit ‎(CD, Album, RE, RM) Original Jazz Classics, Prestige OJCCD 322-2, P-7171 Europe 1992
OJCCD 322-2, P-7171 Eddie "Lockjaw" Davis Quintet* With Shirley Scott Eddie "Lockjaw" Davis Quintet* With Shirley Scott - Jaws In Orbit ‎(CD, Album, RE, RM) Original Jazz Classics, Prestige OJCCD 322-2, P-7171 US 1992
none Eddie "Lockjaw" Davis Quintet* With Shirley Scott Eddie "Lockjaw" Davis Quintet* With Shirley Scott - Jaws In Orbit ‎(File, FLAC, Album, RE, RM, 24-) Rev-Ola none 2019
PR 7171 Eddie "Lockjaw" Davis Quintet* With Shirley Scott Eddie "Lockjaw" Davis Quintet* With Shirley Scott - Jaws In Orbit ‎(LP, Album, Mono, RE) Prestige PR 7171 US Unknown

Tracklist Hide Credits

A1 Intermission Riff
Written-By – Ray Wetzel
A2 Can't Get Out Of This Mood
Written-By – Loesser*, McHugh*
A3 Foxy
Written-By – Eddie Davis*
B1 Our Delight
Written-By – Tadd Dameron
B2 Bahia
Written-By – A. Barroso*
B3 Bingo Domingo
Written-By – Eddie Davis*

Credits

  • Bass – George Duvivier
  • Drums – Arthur Edgehill
  • Engineer [Recording] – Rudy Van Gelder
  • Liner Notes – Dale Wright
  • Organ – Shirley Scott
  • Supervised By – Esmond Edwards
  • Tenor Saxophone – Eddie "Lockjaw" Davis
  • Trombone – Steve Pulliam

Notes

Recorded in Hackensack, NJ; May 1, 1959.

Barcode and Other Identifiers

  • Matrix / Runout (Side A, etched): PRLP-7171-A
  • Matrix / Runout (Side B, etched): PRLP-7171-B
  • Matrix / Runout (Both Sides, Stamped): RVG

Other versions

Category Artist Title (Format) Label Category Country Year
OJCCD 322-2, P-7171 Eddie "Lockjaw" Davis Quintet* With Shirley Scott Eddie "Lockjaw" Davis Quintet* With Shirley Scott - Jaws In Orbit ‎(CD, Album, RE, RM) Original Jazz Classics, Prestige OJCCD 322-2, P-7171 Europe 1992
none Eddie "Lockjaw" Davis Quintet* With Shirley Scott Eddie "Lockjaw" Davis Quintet* With Shirley Scott - Jaws In Orbit ‎(File, FLAC, Album, RE, RM, 24-) Rev-Ola none 2019
OJCCD 322-2, P-7171 Eddie "Lockjaw" Davis Quintet* With Shirley Scott Eddie "Lockjaw" Davis Quintet* With Shirley Scott - Jaws In Orbit ‎(CD, Album, RE, RM) Original Jazz Classics, Prestige OJCCD 322-2, P-7171 US 1992
PR 7171 Eddie "Lockjaw" Davis Quintet* With Shirley Scott Eddie "Lockjaw" Davis Quintet* With Shirley Scott - Jaws In Orbit ‎(LP, Album, Mono, RE) Prestige PR 7171 US Unknown
32-128 Eddie "Lockjaw" Davis Quintet* With Shirley Scott Eddie "Lockjaw" Davis Quintet* With Shirley Scott - Jaws In Orbit ‎(LP, Album) Esquire 32-128 UK 1959