» » Various - Igloo Jazz Sampler 2
Various - Igloo Jazz Sampler 2 flac album

Various - Igloo Jazz Sampler 2 flac album

MP3 1605 mb. | FLAC 1367 mb. | WMA 1937 mb.

Performer: Various
Title: Igloo Jazz Sampler 2
Released: 2010
Category: Jazz / Folk, Country
Rating: 4.1 ✦
Other format: AUD MP4 MOD AC3 AU FLAC WMA

Various ‎– Jazz Sampler. Label: Jazztone (2) ‎– J-SPEC-100A. Format: Vinyl, LP, 10", Compilation, Sampler. Jazztone (2), Guilde Du Jazz.

1 –Cécile Broché, Etienne Bouyer E411.

Various/Jazz in Paris Jazz & Cinema vol. 3 (Gitanes 5487932) CD Album Digipak. 4-30 CD BB?S 8?. £1. 9. Jazz FM are back and growing with a confirmed RAJAR audience of just under 500,000 listeners. This album is a further reflection of the station’s commitment to quality jazz and soul with a selection of current smooth jazz hits and soul classics. The album boasts an impressive array of artist names and signature tracks, many either previously unissued in the UK (including some massive hits from the US Smooth Jazz charts) or hard to come by on CD. Label – jazz fm (2009) catalogue format – 2XCD album condition – new & sealed.

REM GENRE Jazz REM DATE 2012 PERFORMER "Various Artists" TITLE "Neuklang Sampler Vol. 2 (WEB 2012 Neuklang)" FILE "01. Torque - Forward. flac" WAVE TRACK 01 AUDIO TITLE "Forward" PERFORMER "Torque" INDEX 01 00:00:00 FILE "02. Frank Kuruc - Wassernixen. flac" WAVE TRACK 02 AUDIO TITLE "Wassernixen" PERFORMER "Frank Kuruc" INDEX 01 00:00:00 FILE "03. Simin Tander - Becoming. flac" WAVE TRACK 03 AUDIO TITLE "Becoming" PERFORMER "Simin Tander" INDEX 01 00:00:00 FILE "04.

Artist: VariousDuration: Album. Various - Jazz Sampler 2001 CD Prophone NEW. Label: Prophone. Format: CD. We will dispatch the product after receiving the money. Persson, Anders Trio "Falling in love again".

Broken Beat, Nu Jazz Funk International Jazz Soul. 90's House Collection Sampler Two. Plastik People. Format: 140 gram vinyl 12" Cat: PPRC 02 Released: 15 Apr 16 Genre: Deep House.

Jazz music loops, stock samples, royalty free downloads. Acid, FL Studio, Ableton, Pro Tools, Garageband, Pro Tools, Cubase. Captured by two sm57s and one 420 mic (to get that roomy sound pressure feel into the record). This thing is sound SO HUGE live. I also have real acoustic piano and drums parts matching this loop, contact me if you want them. Find a minute and hit my Tracks page (here on Looperman), tnx. XO. Some Electric Guitar. damonb 29th May 2019.

Jazz Sampler by Kevin MacLeod. TAGGED AS: japanese jazz. Jazz Sampler by Kevin MacLeod is licensed under a Creative Commons Attribution License. For more permissions: contact artist.

For It's the second Various Artists Sampler, the parisian label gives us another sharp selection of talented young bloods and confirmed producers. 4 quality deep house tracks here, done by Sebo K, Swoy, Dj Honesty and Olivier Romero. As usual with Politics Of Dancing records, this sampler is a versatile collection of dancefloor friendly cuts, and carefully chosen cracking deep house tracks. Limited vinyl only release.

Tracklist

1 Cécile Broché, Etienne Bouyer E411
2 Collapse King-Fu
3 Thomas Champagne Coffeeman
4 Greg Houben Day Break
5 Mathilde Renault, Jonas Knutsson In A Sweedish Mood
6 Pascal Mohy 12 Huîtres Boogie
7 Eve Beuvens Little Scorpion
8 Jean Warland, Fabrice Alleman Sweet And Lovely
9 Jacques Pirotton April-Fool
10 Gino Latucca Bad Influence
11 Sabin Todorov Beautifull Horses
12 L'âme Des Poètes Couer De Loup
13 Manou Gallo Desert
14 Majid Bekkas Yarassoulallah Ya Nabi

Notes

Mastering: Igloo Studio
Design: Corbi

Barcode and Other Identifiers

  • Barcode: 5410547122229